<?xml version="1.0" encoding="UTF-8" standalone="no"?>
<!-- Creator: CorelDRAW -->

<svg
   xml:space="preserve"
   width="1593"
   height="252.28987"
   version="1.1"
   style="clip-rule:evenodd;fill-rule:evenodd;image-rendering:optimizeQuality;shape-rendering:geometricPrecision;text-rendering:geometricPrecision"
   viewBox="0 0 1559.22 246.88072"
   id="svg113"
   sodipodi:docname="mucteam_logo_ohne_slogan.svg"
   inkscape:version="1.2.2 (732a01da63, 2022-12-09)"
   inkscape:export-filename="mucteam_logo_ohne_slogan.png"
   inkscape:export-xdpi="96"
   inkscape:export-ydpi="96"
   xmlns:inkscape="http://www.inkscape.org/namespaces/inkscape"
   xmlns:sodipodi="http://sodipodi.sourceforge.net/DTD/sodipodi-0.dtd"
   xmlns="http://www.w3.org/2000/svg"
   xmlns:svg="http://www.w3.org/2000/svg"><sodipodi:namedview
   id="namedview115"
   pagecolor="#ffffff"
   bordercolor="#000000"
   borderopacity="0.25"
   inkscape:showpageshadow="2"
   inkscape:pageopacity="0.0"
   inkscape:pagecheckerboard="0"
   inkscape:deskcolor="#d1d1d1"
   showgrid="false"
   inkscape:zoom="0.60462754"
   inkscape:cx="922.05525"
   inkscape:cy="565.63748"
   inkscape:window-width="1920"
   inkscape:window-height="1129"
   inkscape:window-x="-8"
   inkscape:window-y="-8"
   inkscape:window-maximized="1"
   inkscape:current-layer="Ebene_x0020_1" />
 <defs
   id="defs64"><font
     id="FontID1"
     horiz-adv-x="684"
     font-variant="normal"
     style="fill-rule:nonzero"
     font-weight="500"
     horiz-origin-x="0"
     horiz-origin-y="0"
     vert-origin-x="512"
     vert-origin-y="768"
     vert-adv-y="1024">
	<font-face
   font-family="Ubuntu Light"
   id="font-face2">
		<font-face-src>
			<font-face-name
   name="Ubuntu Medium" />
		</font-face-src>
	</font-face>
   <missing-glyph
   id="missing-glyph6"><path
     d="M0 0z"
     id="path4" /></missing-glyph>
   <glyph
   unicode="I"
   horiz-adv-x="292"
   d="M83.0137 693.048l126.007 0 0 -693.048 -126.007 0 0 693.048z"
   id="glyph8" />
   <glyph
   unicode="T"
   horiz-adv-x="579"
   d="M566.05 693.048l0 -108.997 -213.021 0 0 -584.051 -127.016 0 0 584.051 -213.003 0 0 108.997 553.04 0z"
   id="glyph10" />
   <glyph
   unicode="i"
   horiz-adv-x="276"
   d="M199.02 0l-121.016 0 0 523.039 121.016 0 0 -523.039zm12.9917 676.056c0,-22.6679 -7.33375,-40.669 -22.0012,-54.0031 -14.6675,-13.3341 -32.0018,-20.0011 -52.0029,-20.0011 -20.6678,0 -38.3265,6.66704 -52.994,20.0011 -14.6675,13.3341 -22.0012,31.3351 -22.0012,54.0031 0,23.3347 7.33375,41.66 22.0012,54.9941 14.6675,13.3341 32.3262,20.0011 52.994,20.0011 20.0011,0 37.3354,-6.66704 52.0029,-20.0011 14.6675,-13.3341 22.0012,-31.6594 22.0012,-54.9941z"
   id="glyph12" />
   <glyph
   unicode="l"
   horiz-adv-x="297"
   d="M259.024 -10.0006c-36.002,0.666704 -65.8416,4.66693 -89.5186,12.0007 -23.659,7.33375 -42.4889,17.8388 -56.4897,31.4973 -14.0008,13.6764 -23.8392,30.6684 -29.5152,51.0119 -5.65798,20.3255 -8.48697,43.498 -8.48697,69.4994l0 602.052 120.998 20.0011 0 -599.043c0,-14.6675 1.17124,-27.0105 3.49569,-37.0111 2.34247,-10.0006 6.50487,-18.5056 12.5052,-25.4969 6.00034,-7.00941 14.163,-12.343 24.5059,-16.0009 10.3249,-3.67588 23.4968,-6.50487 39.4977,-8.50499l-16.992 -100.006z"
   id="glyph14" />
   <glyph
   unicode="n"
   horiz-adv-x="585"
   d="M77.0134 506.047c23.3347,6.66704 53.6607,12.9917 90.9961,18.9921 37.3354,6.00034 78.6711,9.00952 124.007,9.00952 42.6691,0 78.3468,-5.83817 107.015,-17.5145 28.6683,-11.6583 51.4984,-28.0016 68.5084,-48.9938 16.992,-21.0102 28.9926,-46.345 36.002,-76.0043 6.99139,-29.6774 10.5051,-62.1837 10.5051,-97.519l0 -294.017 -121.016 0 0 275.025c0,28.0016 -1.83794,51.8408 -5.49581,71.4995 -3.67588,19.6768 -9.67622,35.6777 -18.001,48.0027 -8.34281,12.343 -19.6768,21.3345 -34.0019,27.0105 -14.3432,5.65798 -31.8396,8.48697 -52.5075,8.48697 -15.3342,0 -31.3351,-0.991047 -48.0027,-2.99116 -16.6676,-2.00011 -29.0107,-3.67588 -37.0111,-5.00929l0 -422.024 -120.998 0 0 506.047z"
   id="glyph16" />
   <glyph
   unicode="o"
   horiz-adv-x="598"
   d="M550.049 262.015c0,-41.3357 -6.00034,-78.9955 -18.001,-112.997 -12.0007,-34.0019 -29.0107,-63.0126 -51.0119,-87.0139 -22.0012,-24.0014 -48.5073,-42.6691 -79.5,-56.0032 -31.0108,-13.3341 -65.1749,-20.0011 -102.51,-20.0011 -37.3354,0 -71.3374,6.66704 -102.006,20.0011 -30.6684,13.3341 -57.0122,32.0018 -79.0135,56.0032 -22.0012,24.0014 -39.1734,53.012 -51.4984,87.0139 -12.343,34.0019 -18.5056,71.6617 -18.5056,112.997 0,41.3357 6.16251,78.8513 18.5056,112.511 12.325,33.6776 29.6593,62.508 52.0029,86.5094 22.3256,24.0014 48.8316,42.5069 79.5,55.4986 30.6684,13.0097 64.346,19.5146 101.015,19.5146 36.6687,0 70.5085,-6.50487 101.501,-19.5146 31.0108,-12.9917 57.4988,-31.4973 79.5,-55.4986 22.0193,-24.0014 39.1734,-52.8318 51.5164,-86.5094 12.325,-33.6596 18.5056,-71.1752 18.5056,-112.511zm-124.025 0c0,52.0029 -11.1538,93.1764 -33.4974,123.521 -22.3256,30.326 -53.4985,45.4981 -93.5008,45.4981 -40.0023,0 -71.1752,-15.172 -93.5188,-45.4981 -22.3256,-30.3441 -33.4974,-71.5176 -33.4974,-123.521 0,-52.6696 11.1718,-94.3297 33.4974,-124.998 22.3436,-30.6684 53.5165,-46.0026 93.5188,-46.0026 40.0023,0 71.1752,15.3342 93.5008,46.0026 22.3436,30.6684 33.4974,72.3284 33.4974,124.998z"
   id="glyph18" />
   <glyph
   unicode="s"
   horiz-adv-x="457"
   d="M208.012 87.0139c32.0018,0 55.3365,3.82004 70.004,11.4961 14.6675,7.65809 22.0012,20.83 22.0012,39.4977 0,17.3343 -7.82026,31.6775 -23.4968,43.0114 -15.6585,11.334 -41.4978,23.659 -77.4999,36.9931 -22.0012,8.00045 -42.1826,16.5054 -60.5079,25.4969 -18.3434,9.00952 -34.1641,19.5146 -47.4982,31.5153 -13.3341,12.0007 -23.8392,26.506 -31.5153,43.498 -7.65809,17.01 -11.4961,37.84 -11.4961,62.508 0,48.0027 17.6767,85.8427 53.012,113.502 35.3353,27.6772 83.3381,41.5159 144.008,41.5159 30.6684,0 60.0034,-2.84701 88.005,-8.50499 28.0016,-5.676 48.9938,-11.1718 62.9946,-16.5054l-22.0012 -98.0055c-13.3341,6.00034 -30.326,11.4961 -50.9939,16.5054 -20.6678,4.99127 -44.6692,7.49592 -72.0041,7.49592 -24.6681,0 -44.6692,-4.1624 -60.0034,-12.5052 -15.3342,-8.3248 -23.0103,-21.1724 -23.0103,-38.5067 0,-8.66716 1.49558,-16.3252 4.50476,-22.9923 2.99116,-6.66704 8.16262,-12.8296 15.4964,-18.5056 7.33375,-5.65798 17.01,-11.334 29.0107,-16.992 12.0007,-5.676 26.6682,-11.5142 44.0025,-17.5145 28.6683,-10.6673 52.994,-21.1544 72.9951,-31.4973 20.0011,-10.3249 36.5066,-22.0012 49.5163,-35.011 12.9917,-12.9917 22.4878,-27.8214 28.4881,-44.489 6.00034,-16.6676 9.00952,-36.6687 9.00952,-60.0034 0,-50.0028 -18.5056,-87.8428 -55.4986,-113.52 -37.0111,-25.6591 -89.8429,-38.5067 -158.513,-38.5067 -46.0026,0 -83.0137,3.83806 -111.015,11.5142 -28.0016,7.65809 -47.6604,13.8386 -58.9943,18.5056l20.9922 100.997c18.001,-7.33375 39.4977,-14.3251 64.5082,-20.9922 24.9924,-6.66704 53.4985,-10.0006 85.5003,-10.0006z"
   id="glyph20" />
   <glyph
   unicode="t"
   horiz-adv-x="418"
   d="M71.013 661.046l120.998 20.0011 0 -158.009 186.011 0 0 -101.015 -186.011 0 0 -213.003c0,-42.0024 6.66704,-72.0041 20.0011,-90.0051 13.3341,-18.001 36.002,-27.0105 68.0038,-27.0105 22.0012,0 41.5159,2.34247 58.5078,7.00941 17.01,4.66693 30.5062,8.9915 40.5068,12.9917l20.0011 -96.0054c-14.0008,-6.00034 -32.3442,-12.1629 -55.0121,-18.5056 -22.6679,-6.32468 -49.3361,-9.49603 -80.0045,-9.49603 -37.3354,0 -68.5084,4.99127 -93.5008,15.0099 -25.0104,10.0006 -44.8314,24.4879 -59.4989,43.498 -14.6675,18.9921 -25.0104,42.0024 -31.0108,68.9949 -6.00034,27.0105 -8.9915,57.8411 -8.9915,92.5097l0 453.035z"
   id="glyph22" />
   <glyph
   unicode="u"
   horiz-adv-x="583"
   d="M506.047 16.0009c-23.3527,-6.00034 -53.6787,-12.1629 -91.0142,-18.5056 -37.3354,-6.32468 -78.3468,-9.49603 -123.016,-9.49603 -42.0024,0 -77.1755,6.00034 -105.501,18.001 -28.3439,12.0007 -51.0119,28.6683 -68.0038,50.0028 -17.01,21.3345 -29.1728,46.8315 -36.5066,76.5088 -7.33375,29.6593 -10.9916,62.1657 -10.9916,97.501l0 293.026 120.998 0 0 -274.016c0,-56.0032 8.16262,-96.0054 24.5059,-120.007 16.3252,-24.0014 44.8314,-36.002 85.5003,-36.002 14.6675,0 30.1819,0.666704 46.5071,2.00011 16.3433,1.33341 28.5061,2.99116 36.5066,4.99127l0 423.033 121.016 0 0 -507.038z"
   id="glyph24" />
  </font><font
     id="FontID0"
     horiz-adv-x="641"
     font-variant="normal"
     style="fill-rule:nonzero"
     font-weight="300"
     horiz-origin-x="0"
     horiz-origin-y="0"
     vert-origin-x="512"
     vert-origin-y="768"
     vert-adv-y="1024">
	<font-face
   font-family="Ubuntu Light"
   id="font-face27">
		<font-face-src>
			<font-face-name
   name="Ubuntu Light" />
		</font-face-src>
	</font-face>
   <missing-glyph
   id="missing-glyph31"><path
     d="M0 0z"
     id="path29" /></missing-glyph>
   <glyph
   unicode="a"
   horiz-adv-x="509"
   d="M249.023 47.0117c25.3348,0 47.4982,0.828876 66.5083,2.48663 18.9921,1.67577 35.1551,3.83806 48.4892,6.50487l0 182.01c-7.33375,3.33352 -18.9921,6.82922 -34.993,10.5051 -16.0009,3.67588 -38.0022,5.49581 -66.0037,5.49581 -16.0009,0 -32.6685,-1.15322 -50.0028,-3.49569 -17.3343,-2.34247 -33.3352,-7.33375 -48.0027,-15.0099 -14.6675,-7.65809 -26.6682,-18.1632 -36.002,-31.4973 -9.33386,-13.3341 -14.0008,-30.9927 -14.0008,-52.994 0,-19.3344 3.15333,-35.6777 9.49603,-49.0118 6.32468,-13.3341 15.3342,-24.0014 26.9925,-32.0018 11.6763,-8.00045 25.6771,-13.8386 42.0024,-17.4965 16.3433,-3.67588 34.8488,-5.49581 55.5167,-5.49581zm-6.00034 482.027c34.0019,0 62.8324,-4.8291 86.5094,-14.5053 23.659,-9.6582 42.8313,-22.9923 57.4988,-40.0023 14.6675,-16.992 25.3348,-37.1733 32.0018,-60.5079 6.66704,-23.3347 10.0006,-48.6694 10.0006,-76.0043l0 -326.018c-6.66704,-2.00011 -16.3433,-4.1624 -29.0107,-6.50487 -12.6674,-2.32446 -27.3349,-4.8291 -44.0025,-7.49592 -16.6676,-2.66682 -35.1551,-4.8291 -55.4986,-6.50487 -20.3255,-1.65775 -41.1735,-2.50465 -62.508,-2.50465 -27.3349,0 -52.5075,3.00918 -75.4998,9.00952 -23.0103,6.00034 -43.0114,15.4964 -60.0034,28.5061 -17.01,12.9917 -30.3441,29.6593 -40.0023,50.0028 -9.67622,20.3255 -14.5053,45.1737 -14.5053,74.5087 0,28.0016 5.33364,52.0029 16.0009,72.0041 10.6673,20.0011 25.6771,36.5066 45.0116,49.4983 19.3344,13.0097 42.3267,22.5058 68.9949,28.5061 26.6682,6.00034 55.6788,8.9915 87.0139,8.9915 9.33386,0 19.1723,-0.486514 29.4972,-1.49558 10.3429,-0.991047 20.3435,-2.32446 30.0017,-4.00023 9.67622,-1.65775 18.001,-3.33352 25.0104,-4.99127 6.99139,-1.67577 11.8205,-3.17135 14.4873,-4.50476l0 32.0018c0,18.001 -1.33341,35.4975 -4.00023,52.5075 -2.66682,16.992 -8.48697,32.3262 -17.4965,46.0026 -8.9915,13.6584 -21.6589,24.6681 -38.0022,32.9929 -16.3252,8.34281 -37.84,12.5052 -64.5082,12.5052 -38.0022,0 -66.3281,-2.66682 -84.9958,-8.00045 -18.6677,-5.33364 -32.3442,-9.67622 -41.0113,-13.0097l-8.9915 57.0122c11.334,5.33364 28.8305,10.3429 52.4895,15.0099 23.677,4.66693 52.1831,6.99139 85.5184,6.99139z"
   id="glyph33" />
   <glyph
   unicode="e"
   horiz-adv-x="548"
   d="M55.0121 259.024c0,45.3359 6.48685,84.8336 19.4966,118.511 12.9917,33.6596 30.0017,61.8233 50.9939,84.4913 21.0102,22.6679 45.0116,39.5158 72.0041,50.5074 27.0105,11.0096 54.85,16.5054 83.5182,16.5054 63.3369,0 113.844,-20.6678 151.504,-62.0035 37.6778,-41.3357 56.5077,-105.015 56.5077,-191.02 0,-5.33364 -0.162171,-10.6673 -0.504533,-16.0009 -0.324343,-5.33364 -0.828876,-10.3249 -1.49558,-14.9918l-363.03 0c2.00011,-63.3369 17.6767,-112.006 47.0117,-146.008 29.335,-34.0019 76.0043,-51.0119 140.008,-51.0119 35.3353,0 63.3369,3.33352 84.0048,10.0006 20.6678,6.66704 35.6597,12.343 44.9935,17.01l12.0007 -56.0032c-9.33386,-5.33364 -26.8303,-11.6763 -52.4895,-19.0101 -25.6771,-7.33375 -55.841,-11.0096 -90.5096,-11.0096 -45.3359,0 -84.0048,6.66704 -116.007,20.0192 -32.0018,13.3341 -58.3456,32.0018 -79.0135,56.0032 -20.6678,24.0014 -35.6597,52.4895 -44.9935,85.5003 -9.33386,32.9929 -14.0008,69.1751 -14.0008,108.511zm367.012 40.9933c-1.33341,54.0031 -14.0008,96.0054 -38.0022,126.007 -24.0014,30.0017 -58.0033,45.0116 -102.006,45.0116 -23.3347,0 -44.1647,-4.66693 -62.508,-14.0008 -18.3254,-9.33386 -34.3263,-21.8391 -48.0027,-37.4976 -13.6584,-15.6766 -24.3257,-33.8398 -32.0018,-54.5076 -7.65809,-20.6678 -12.1629,-42.3447 -13.4963,-65.0127l296.017 0z"
   id="glyph35" />
   <glyph
   unicode="g"
   horiz-adv-x="573"
   d="M423.033 60.0034c-4.00023,-3.33352 -10.0006,-7.17158 -18.001,-11.4961 -8.00045,-4.34259 -17.8388,-8.82933 -29.4972,-13.4963 -11.6763,-4.66693 -25.0104,-8.50499 -40.0023,-11.5142 -15.0099,-2.99116 -31.8396,-4.48674 -50.5074,-4.48674 -30.0017,0 -59.0123,4.66693 -87.0139,14.0008 -28.0016,9.33386 -52.5075,24.0014 -73.4997,44.0025 -21.0102,20.0011 -37.84,45.8224 -50.5074,77.4999 -12.6674,31.6594 -18.9921,70.1661 -18.9921,115.502 0,36.6687 5.65798,70.6707 16.992,102.006 11.334,31.3351 27.4971,58.5078 48.5073,81.5181 20.9922,22.9923 46.6693,40.9933 76.9953,54.0031 30.3441,12.9917 64.5082,19.4966 102.51,19.4966 48.0027,0 86.5094,-3.17135 115.52,-9.49603 28.9926,-6.3427 52.8318,-12.5052 71.4995,-18.5056l0 -472.027c0,-77.3557 -20.0011,-132.512 -60.0034,-165.523 -40.0023,-32.9929 -100.348,-49.4983 -181.019,-49.4983 -33.3352,0 -63.4991,2.50465 -90.5096,7.49592 -26.9925,5.00929 -50.165,10.8294 -69.4994,17.4965l13.0097 59.0123c16.0009,-7.33375 37.822,-13.6764 65.4992,-19.0101 27.6592,-5.33364 55.4986,-8.00045 83.5002,-8.00045 61.3368,0 105.844,11.8385 133.521,35.5155 27.6592,23.659 41.4978,64.1658 41.4978,121.502l0 34.0019zm-1.00907 394.022c-11.334,3.33352 -26.0015,6.50487 -44.0025,9.51405 -18.001,2.99116 -43.6601,4.48674 -76.9953,4.48674 -28.0016,0 -52.8498,-4.8291 -74.5087,-14.4873 -21.6769,-9.67622 -40.1644,-23.3347 -55.4986,-41.0113 -15.3342,-17.6587 -27.0105,-38.6689 -35.011,-62.9946 -8.00045,-24.3437 -12.0007,-51.1741 -12.0007,-80.5091 0,-34.0019 4.66693,-63.1747 14.0008,-87.5185 9.33386,-24.3257 21.4967,-44.1647 36.5066,-59.4989 14.9918,-15.3342 32.164,-26.506 51.4984,-33.4974 19.3344,-7.00941 39.0112,-10.5051 59.0123,-10.5051 29.335,0 56.1653,4.34259 80.5091,13.0097 24.3257,8.66716 43.1556,18.6677 56.4897,30.0017l0 333.01z"
   id="glyph37" />
   <glyph
   unicode="h"
   horiz-adv-x="569"
   d="M86.0049 0l0 764.061 65.0127 12.0007 0 -274.016c21.3345,8.00045 42.9934,14.163 64.9947,18.4875 22.0012,4.34259 44.0025,6.50487 66.0037,6.50487 40.0023,0 73.3375,-5.65798 100.006,-16.992 26.6682,-11.352 48.0027,-27.5151 64.0036,-48.5073 16.0009,-21.0102 27.1727,-46.1828 33.5154,-75.5178 6.32468,-29.335 9.49603,-61.6611 9.49603,-96.9965l0 -289.025 -65.0127 0 0 268.015c0,36.6687 -2.48663,67.6795 -7.49592,93.0143 -4.99127,25.3348 -13.3341,46.0026 -24.9924,62.0035 -11.6763,16.0009 -27.1727,27.4971 -46.5071,34.5065 -19.3344,6.99139 -43.6781,10.4871 -73.0131,10.4871 -11.334,0 -23.4968,-0.991047 -36.5066,-2.99116 -12.9917,-2.00011 -25.1546,-4.1624 -36.4886,-6.50487 -11.334,-2.32446 -21.5147,-4.8291 -30.5062,-7.49592 -9.00952,-2.66682 -14.8297,-4.66693 -17.4965,-6.00034l0 -445.034 -65.0127 0z"
   id="glyph39" />
   <glyph
   unicode="i"
   horiz-adv-x="237"
   d="M151.018 0l-65.0127 0 0 517.038 65.0127 0 0 -517.038zm14.9918 673.047c0,-15.3342 -4.66693,-27.4971 -14.0008,-36.5066 -9.33386,-8.9915 -20.6678,-13.4963 -34.0019,-13.4963 -13.3341,0 -24.6681,4.50476 -34.0019,13.4963 -9.33386,9.00952 -14.0008,21.1724 -14.0008,36.5066 0,15.3342 4.66693,27.4971 14.0008,36.5066 9.33386,8.9915 20.6678,13.4963 34.0019,13.4963 13.3341,0 24.6681,-4.50476 34.0019,-13.4963 9.33386,-9.00952 14.0008,-21.1724 14.0008,-36.5066z"
   id="glyph41" />
   <glyph
   unicode="l"
   horiz-adv-x="255"
   d="M217.021 -9.00952c-22.0012,0.666704 -41.1735,3.51371 -57.5168,8.50499 -16.3252,5.00929 -30.0017,12.6674 -40.9933,23.0103 -11.0096,10.3249 -19.3344,23.659 -25.0104,40.0023 -5.65798,16.3252 -8.48697,36.8309 -8.48697,61.499l0 640.054 64.9947 12.0007 0 -650.055c0,-16.0009 1.49558,-28.8305 4.50476,-38.5067 2.99116,-9.6582 7.49592,-17.3343 13.4963,-22.9923 6.00034,-5.676 13.8386,-9.83839 23.4968,-12.5052 9.67622,-2.66682 21.1724,-4.99127 34.5065,-6.99139l-8.9915 -54.0211z"
   id="glyph43" />
   <glyph
   unicode="m"
   horiz-adv-x="863"
   d="M86.0049 499.037c19.3344,5.33364 44.507,11.334 75.4998,18.001 31.0108,6.66704 71.1752,10.0006 120.511,10.0006 65.337,0 112.673,-18.9921 142.008,-57.0122 3.33352,2.66682 9.83839,7.17158 19.5146,13.5143 9.6582,6.32468 21.8211,12.8296 36.4886,19.4966 14.6675,6.66704 31.8396,12.343 51.5164,17.01 19.6588,4.66693 41.4978,6.99139 65.4992,6.99139 39.3356,0 71.1752,-5.83817 95.5009,-17.4965 24.3437,-11.6763 43.1736,-28.0016 56.5077,-49.0118 13.3341,-20.9922 22.3436,-46.1648 27.0105,-75.4998 4.66693,-29.335 6.99139,-61.3368 6.99139,-96.0054l0 -289.025 -64.9947 0 0 268.015c0,34.0019 -1.5136,63.5171 -4.50476,88.5095 -3.00918,25.0104 -9.00952,45.6783 -18.001,62.0035 -9.00952,16.3433 -21.8391,28.6683 -38.5067,37.0111 -16.6676,8.3248 -38.3265,12.4872 -64.9947,12.4872 -20.0011,0 -38.1823,-1.81992 -54.5076,-5.49581 -16.3433,-3.65786 -30.5062,-8.16262 -42.5069,-13.4963 -12.0007,-5.33364 -21.8391,-10.6673 -29.4972,-16.0009 -7.67611,-5.33364 -13.1719,-9.33386 -16.5054,-12.0007 6.00034,-17.3343 10.5051,-36.8309 13.4963,-58.5078 3.00918,-21.6589 4.50476,-44.507 4.50476,-68.5084l0 -294.017 -65.0127 0 0 268.015c0,34.0019 -1.49558,63.5171 -4.48674,88.5095 -3.00918,25.0104 -9.17169,45.6783 -18.5056,62.0035 -9.33386,16.3433 -22.5058,28.6683 -39.4977,37.0111 -17.01,8.3248 -39.5158,12.4872 -67.5173,12.4872 -31.3351,0 -57.8411,-1.65775 -79.5,-4.99127 -21.6769,-3.33352 -35.4975,-6.3427 -41.4978,-9.00952l0 -454.026 -65.0127 0 0 499.037z"
   id="glyph45" />
   <glyph
   unicode="o"
   horiz-adv-x="582"
   d="M527.039 258.015c0,-40.669 -5.83817,-77.6621 -17.4965,-110.997 -11.6763,-33.3352 -28.0016,-61.6792 -49.0118,-85.0138 -20.9922,-23.3347 -45.8404,-41.4978 -74.5087,-54.5076 -28.6683,-12.9917 -60.3277,-19.4966 -94.9964,-19.4966 -34.6686,0 -66.3461,6.50487 -95.0144,19.4966 -28.6683,13.0097 -53.4985,31.1729 -74.5087,54.5076 -20.9922,23.3347 -37.3354,51.6786 -48.9938,85.0138 -11.6763,33.3352 -17.4965,70.3283 -17.4965,110.997 0,40.669 5.82015,77.6801 17.4965,111.015 11.6583,33.3352 28.0016,61.8413 48.9938,85.5003 21.0102,23.677 45.8404,42.0024 74.5087,55.0121 28.6683,12.9917 60.3458,19.4966 95.0144,19.4966 34.6686,0 66.3281,-6.50487 94.9964,-19.4966 28.6683,-13.0097 53.5165,-31.3351 74.5087,-55.0121 21.0102,-23.659 37.3354,-52.1651 49.0118,-85.5003 11.6583,-33.3352 17.4965,-70.3463 17.4965,-111.015zm-69.0129 0c0,64.6703 -14.9918,116.187 -44.9935,154.513 -30.0017,38.3445 -70.6707,57.4988 -122.007,57.4988 -51.3362,0 -92.0052,-19.1542 -122.007,-57.4988 -30.0017,-38.3265 -45.0116,-89.8429 -45.0116,-154.513 0,-64.6703 15.0099,-116.007 45.0116,-154.009 30.0017,-38.0022 70.6707,-56.9942 122.007,-56.9942 51.3362,0 92.0052,18.9921 122.007,56.9942 30.0017,38.0022 44.9935,89.3384 44.9935,154.009z"
   id="glyph47" />
   <glyph
   unicode="r"
   horiz-adv-x="374"
   d="M262.015 527.039c21.3345,0 41.5159,-1.65775 60.5079,-4.99127 19.0101,-3.33352 32.164,-6.66704 39.4977,-10.0006l-12.9917 -56.0212c-5.33364,2.66682 -16.1631,5.51383 -32.5063,8.50499 -16.3252,3.00918 -37.84,4.50476 -64.5082,4.50476 -28.0016,0 -50.5074,-2.00011 -67.4993,-6.00034 -17.01,-4.00023 -28.1638,-7.33375 -33.4974,-10.0006l0 -453.035 -65.0127 0 0 493.037c16.6676,7.33375 39.6779,14.8297 69.0129,22.5058 29.335,7.65809 64.9947,11.4961 106.997,11.4961z"
   id="glyph49" />
   <glyph
   unicode="s"
   horiz-adv-x="428"
   d="M192.011 46.0026c37.3354,0 68.184,6.16251 92.5097,18.5056 24.3437,12.325 36.5066,33.173 36.5066,62.508 0,14.0008 -2.16228,26.0015 -6.50487,36.002 -4.32457,10.0006 -11.4961,18.9921 -21.4967,26.9925 -10.0006,8.00045 -23.1725,15.6766 -39.4977,23.0103 -16.3433,7.33375 -36.5066,16.0009 -60.5079,26.0015 -19.3344,8.00045 -37.6778,16.1631 -55.0121,24.5059 -17.3343,8.3248 -32.6685,18.001 -46.0026,28.9926 -13.3341,11.0096 -24.0014,24.1635 -32.0018,39.4977 -8.00045,15.3342 -12.0007,34.0019 -12.0007,56.0032 0,42.0024 15.8387,76.0043 47.4982,102.006 31.6775,26.0195 75.1754,39.0112 130.512,39.0112 35.3353,0 64.5082,-2.99116 87.5185,-8.9915 22.9923,-6.00034 39.1554,-11.334 48.4892,-16.0009l-14.9918 -58.0213c-8.00045,4.00023 -21.4967,9.33386 -40.5068,16.0009 -18.9921,6.66704 -46.8315,10.0006 -83.5002,10.0006 -14.6675,0 -28.5061,-1.49558 -41.5159,-4.48674 -12.9917,-3.00918 -24.4879,-7.67611 -34.4884,-14.0008 -10.0006,-6.3427 -18.001,-14.3432 -24.0014,-24.1815 -6.00034,-9.6582 -9.00952,-21.4967 -9.00952,-35.4975 0,-14.0008 2.66682,-26.0015 8.00045,-36.002 5.33364,-10.1627 13.1719,-18.9921 23.4968,-26.6682 10.3429,-7.65809 23.0103,-14.8297 38.0022,-21.4967 15.0099,-6.50487 32.182,-13.8386 51.5164,-21.8391 20.0011,-8.00045 39.1734,-16.1631 57.4988,-24.3257 18.3434,-8.34281 34.5065,-18.3434 48.5073,-30.0197 14.0008,-11.6583 25.3348,-25.6591 34.0019,-42.0024 8.66716,-16.3252 12.9917,-36.8309 12.9917,-61.499 0,-46.6693 -17.4965,-82.0046 -52.4895,-106.006 -35.011,-24.0014 -82.8515,-36.002 -143.522,-36.002 -45.3359,0 -80.0045,3.83806 -104.006,11.4961 -24.0014,7.67611 -40.0023,13.5143 -48.0027,17.5145l17.01 58.9943c2.00011,-1.33341 6.32468,-3.49569 12.9917,-6.50487 6.66704,-2.99116 15.6766,-6.32468 27.0105,-10.0006 11.334,-3.65786 24.8302,-6.82922 40.4888,-9.49603 15.6766,-2.66682 33.8398,-4.00023 54.5076,-4.00023z"
   id="glyph51" />
   <glyph
   unicode="t"
   horiz-adv-x="387"
   d="M147.017 517.038l206.012 0 0 -55.0121 -206.012 0 0 -275.007c0,-29.335 2.48663,-53.1742 7.49592,-71.5176 4.99127,-18.3254 12.1629,-32.4883 21.4967,-42.4889 9.33386,-10.0006 20.6678,-16.6676 34.0019,-20.0011 13.3341,-3.33352 28.0016,-5.00929 44.0025,-5.00929 27.3349,0 49.3361,3.17135 66.0037,9.49603 16.6676,6.3427 29.6774,12.1809 39.0112,17.5145l16.0009 -54.0031c-9.33386,-6.00034 -25.6771,-12.8476 -49.0118,-20.5057 -23.3347,-7.67611 -48.6694,-11.5142 -76.0043,-11.5142 -32.0018,0 -58.8322,4.18042 -80.5091,12.5052 -21.6589,8.34281 -38.9932,21.0102 -52.0029,38.0022 -12.9917,17.01 -22.1634,38.1823 -27.4971,63.5171 -5.33364,25.3348 -8.00045,55.3365 -8.00045,90.0051l0 476.027 65.0127 12.0007 0 -164.009z"
   id="glyph53" />
   <glyph
   unicode="u"
   horiz-adv-x="569"
   d="M483.036 18.001c-19.3344,-5.33364 -45.3359,-11.334 -78.0044,-18.001 -32.6685,-6.66704 -72.6708,-10.0006 -120.007,-10.0006 -38.6689,0 -71.013,5.65798 -97.0145,17.01 -26.0015,11.334 -46.9937,27.3349 -62.9946,48.0027 -16.0009,20.6678 -27.5151,45.6602 -34.5065,74.9952 -7.00941,29.335 -10.5051,61.6792 -10.5051,97.0145l0 290.016 65.0127 0 0 -269.024c0,-36.6687 2.66682,-67.6615 8.00045,-92.9963 5.33364,-25.3348 14.0008,-45.8404 26.0015,-61.517 12.0007,-15.6585 27.4971,-26.9925 46.4891,-34.0019 19.0101,-6.99139 42.1826,-10.4871 69.5174,-10.4871 30.6684,0 57.3366,1.65775 80.0045,4.99127 22.6679,3.33352 36.9931,6.3427 42.9934,9.00952l0 454.026 65.0127 0 0 -499.037z"
   id="glyph55" />
   <glyph
   unicode="w"
   horiz-adv-x="775"
   d="M419.699 517.038c6.00034,-33.3352 13.8386,-68.8327 23.3347,-106.511 9.6582,-37.6598 20.3255,-76.0043 31.8396,-114.998 11.6583,-38.849 24.0014,-77.3557 36.9931,-115.52 13.1719,-38.0022 26.3438,-73.6618 39.6779,-106.997 11.334,25.3348 23.4968,56.1653 36.1642,92.3296 12.6674,36.3444 25.3348,74.6709 38.1643,115.016 12.6674,40.3266 24.5059,80.9956 35.5155,122.007 10.9916,40.9933 20.3255,79.3378 27.6592,114.673l64.0036 0c-24.0014,-101.501 -50.3272,-194.353 -78.6711,-278.196 -28.5061,-84.0048 -59.8412,-163.505 -94.0053,-238.842l-60.1656 0c-10.1627,23.4968 -20.6678,49.8407 -31.8396,78.8333 -11.0096,29.0107 -22.5058,59.8412 -34.1641,92.8521 -11.8385,32.9929 -23.1725,67.6615 -34.1821,104.006 -10.9916,36.1642 -21.4967,73.3375 -31.4973,111.34 -10.0006,-38.0022 -20.3255,-75.3376 -31.3351,-111.682 -10.9916,-36.3264 -22.3256,-70.995 -34.0019,-104.006 -11.6583,-32.9929 -22.9923,-64.0036 -34.1641,-92.9963 -11.0096,-29.0107 -21.4967,-55.1743 -31.3351,-78.3468l-62.508 0c-34.1641,75.3376 -65.4992,155.018 -93.8431,239.023 -28.3259,84.0048 -54.5076,176.677 -78.3288,278.016l68.9949 0c7.33375,-35.3353 16.5054,-73.4997 27.6772,-114.511 10.9916,-40.9933 22.8301,-81.6623 35.6597,-121.845 12.6674,-40.3266 25.4969,-78.5089 38.5067,-114.673 13.1719,-36.002 25.3348,-66.6704 36.6687,-92.0052 12.8296,33.173 25.4969,68.8327 38.3445,106.835 12.8296,38.1823 24.9924,76.5088 36.1642,115.178 11.334,38.6689 21.8391,76.8512 31.8396,114.511 10.0006,37.6778 18.8299,73.1753 26.8303,106.511l56.0032 0z"
   id="glyph57" />
   <glyph
   unicode="y"
   horiz-adv-x="474"
   d="M227.022 -11.0096c-21.6769,40.8492 -42.8493,83.1759 -63.1747,127.178 -20.5057,44.0025 -39.4977,88.3473 -57.1744,133.341 -17.8388,45.0116 -34.0019,90.0231 -48.6694,135.017 -14.8297,45.0116 -27.4971,89.1762 -38.0022,132.512l69.0129 0c7.33375,-32.0018 16.6676,-66.5083 28.0016,-103.501 11.334,-37.0111 24.1635,-75.1754 38.3265,-114.511 14.3432,-39.3356 30.1639,-79.6802 47.4982,-121.016 17.3343,-41.3357 36.1822,-82.0046 56.6879,-122.007 14.8297,41.1735 28.0016,80.1667 39.4977,116.673 11.334,36.6687 22.0012,73.1753 31.8396,109.52 9.6582,36.3264 19.1542,73.4997 28.3259,111.34 9.00952,38.0022 18.3434,79.1576 27.8394,123.502l64.9947 0c-21.6589,-96.6721 -46.1648,-190.84 -73.1573,-282.196 -27.0105,-91.5007 -56.6699,-175.001 -88.6717,-250.843 -12.6674,-30.0017 -25.8393,-55.841 -39.1734,-77.4999 -13.3341,-21.6769 -28.3439,-39.5158 -44.6692,-53.5165 -16.3433,-14.0008 -35.5155,-24.3257 -57.1744,-30.9927 -21.8391,-6.66704 -47.4982,-10.0006 -76.8332,-10.0006 -16.8478,0 -32.0018,2.00011 -45.6783,6.00034 -13.8386,4.00023 -22.3256,6.99139 -25.6591,8.9915l12.9917 54.0031c2.66682,-2.00011 10.1627,-4.8291 22.5058,-8.48697 12.5052,-3.67588 25.3348,-5.51383 38.6689,-5.51383 18.6677,0 35.4975,2.00011 50.6695,6.00034 14.9918,4.00023 28.5061,10.8475 40.5068,20.5057 12.0007,9.67622 22.9923,22.1634 32.6685,37.4976 9.6582,15.3342 18.9921,34.6686 28.0016,58.0033z"
   id="glyph59" />
  </font>
</defs>
</svg>
